osu file format v14

[General]
AudioFilename: Audien Feat. Lady Antebellum - Something Better Out Now -[ mymp3download.net ].mp3
AudioLeadIn: 1500
PreviewTime: -1
Countdown: 1
SampleSet: Normal
StackLeniency: 0.7
Mode: 0
LetterboxInBreaks: 0
WidescreenStoryboard: 0

[Editor]
DistanceSpacing: 0.8
BeatDivisor: 1
GridSize: 32
TimelineZoom: 0.1

[Metadata]
Title:Something Better
TitleUnicode:Something Better
Artist:Audien ft. Lady Antebellum
ArtistUnicode:Audien ft. Lady Antebellum
Creator:GrenadePowah
Version:Normal
Source:
Tags:idunno
BeatmapID:837186
BeatmapSetID:382852

[Difficulty]
HPDrainRate:5
CircleSize:5
OverallDifficulty:5
ApproachRate:5
SliderMultiplier:1.4
SliderTickRate:1

[Events]
//Background and Video events
//Break Periods
2,43796,46692
//Storyboard Layer 0 (Background)
//Storyboard Layer 1 (Fail)
//Storyboard Layer 2 (Pass)
//Storyboard Layer 3 (Foreground)
//Storyboard Sound Samples

[TimingPoints]
3981,238.643824701195,4,1,0,100,1,0

[HitObjects]
256,192,2072,5,0,1:1:0:0:
256,160,2549,1,0,1:1:0:0:
256,128,3027,1,0,1:1:0:0:
256,96,3504,1,0,1:1:0:0:
256,64,3981,1,0,1:1:0:0:
256,32,4459,1,0,1:1:0:0:
256,32,4936,1,0,1:1:0:0:
256,32,5413,1,0,1:1:0:0:
256,192,9709,1,0,1:1:0:0:
256,224,10186,1,0,1:1:0:0:
256,256,10663,1,0,1:1:0:0:
256,288,11141,1,0,1:1:0:0:
256,320,11618,1,0,1:1:0:0:
256,352,12095,1,0,1:1:0:0:
256,352,12573,1,0,1:1:0:0:
256,352,13050,1,0,1:1:0:0:
256,192,17345,5,0,1:1:0:0:
288,192,17823,1,0,1:1:0:0:
288,192,18061,1,0,1:1:0:0:
320,192,18777,1,0,1:1:0:0:
352,192,19255,1,0,1:1:0:0:
384,192,19732,1,0,1:1:0:0:
384,192,19970,1,0,1:1:0:0:
416,192,20686,1,0,1:1:0:0:
448,192,21164,1,0,1:1:0:0:
480,192,21641,1,0,1:1:0:0:
480,192,21880,1,0,1:1:0:0:
512,192,22596,1,0,1:1:0:0:
480,192,23073,1,0,1:1:0:0:
448,192,23550,1,0,1:1:0:0:
448,192,23789,1,0,1:1:0:0:
416,192,24505,1,0,1:1:0:0:
256,192,24982,5,0,1:1:0:0:
224,192,25459,1,0,1:1:0:0:
224,192,25698,1,0,1:1:0:0:
192,192,26414,1,0,1:1:0:0:
160,192,26891,1,0,1:1:0:0:
128,192,27368,1,0,1:1:0:0:
128,192,27607,1,0,1:1:0:0:
96,192,28323,1,0,1:1:0:0:
64,192,28800,1,0,1:1:0:0:
32,192,29278,1,0,1:1:0:0:
32,192,29516,1,0,1:1:0:0:
32,192,30232,1,0,1:1:0:0:
32,192,30709,1,0,1:1:0:0:
64,192,31187,1,0,1:1:0:0:
64,192,31425,1,0,1:1:0:0:
256,192,32619,5,0,1:1:0:0:
256,192,32857,5,0,1:1:0:0:
256,192,33096,5,0,1:1:0:0:
256,192,33335,5,0,1:1:0:0:
256,192,33573,5,0,1:1:0:0:
256,192,33812,5,0,1:1:0:0:
256,192,34050,5,0,1:1:0:0:
256,192,34289,5,0,1:1:0:0:
256,192,34528,5,0,1:1:0:0:
256,192,34766,5,0,1:1:0:0:
256,192,35005,5,0,1:1:0:0:
256,192,35244,5,0,1:1:0:0:
256,192,35482,5,0,1:1:0:0:
256,192,35721,5,0,1:1:0:0:
256,192,35960,5,0,1:1:0:0:
320,192,36437,1,0,0:0:0:0:
320,192,36676,1,0,0:0:0:0:
320,192,36914,1,0,0:0:0:0:
320,192,37153,1,0,0:0:0:0:
320,192,37391,1,0,0:0:0:0:
320,192,37630,1,0,0:0:0:0:
320,192,37869,1,0,0:0:0:0:
320,192,38107,1,0,0:0:0:0:
320,192,38346,1,0,0:0:0:0:
320,192,38585,1,0,0:0:0:0:
320,192,38823,1,0,0:0:0:0:
320,192,39062,1,0,0:0:0:0:
320,192,39301,1,0,0:0:0:0:
320,192,39539,1,0,0:0:0:0:
320,192,39778,1,0,0:0:0:0:
192,192,40255,5,0,0:0:0:0:
192,192,40494,1,0,0:0:0:0:
192,192,40732,1,0,0:0:0:0:
192,192,40971,1,0,0:0:0:0:
192,192,41210,1,0,0:0:0:0:
192,192,41448,1,0,0:0:0:0:
192,192,41687,1,0,0:0:0:0:
192,192,41926,1,0,0:0:0:0:
192,192,42164,1,0,0:0:0:0:
192,192,42403,1,0,0:0:0:0:
192,192,42642,1,0,0:0:0:0:
192,192,42880,1,0,0:0:0:0:
192,192,43119,1,0,0:0:0:0:
192,192,43358,1,0,0:0:0:0:
192,192,43596,1,0,0:0:0:0:
256,192,47892,12,0,53619,0:0:0:0:
256,192,55528,12,0,61017,0:0:0:0:
32,192,63165,5,0,0:0:0:0:
480,192,64836,1,0,0:0:0:0:
256,192,66745,1,0,0:0:0:0:
